Home| All Programs| Today added Progs| Download Status| Customers opinion| Helpdesk| Shopping cart

Program Search:

Shopping Cart:




*Note: Minimum order cost: €20
Maximum Total Price: €1500
We Recommend:
Master MATLAB through Guided Problem Solving €30 buy download

× Master MATLAB through Guided Problem Solving Close
Master MATLAB through Guided Problem SolvingWEBRip | English | MP4 | 1280 x 720 | AVC ~1344 Kbps | 30 fps
AAC | 128 Kbps | 48.0 KHz | 2 channels | Subs: English | ~38 hours | 16.8 GBGenre: Video Tutorial
Become an expert in MATLAB Programming and Scientific Computing. Advance your career in Engineering Physics Biology etcMATLAB is the premier programming language of scientific computing in university, research, and industry.

Excellent MATLAB programming skills can make or break a career in engineering, physics, biology, finance, and many other fields.

But how do you learn how to program in MATLAB? Sure, you can watch some tutorial videos online, but those videos generally focus on the most basic coding skills, like what is a variable and how to write a for-loop.

Those are important foundations, but they won't make you competitive. If you want to be competitive, you need to become a master at MATLAB programming. And that's what you'll learn in this course.

This course is different from other MATLAB programming courses!

Rather than having short videos that presents a simple piece of MATLAB syntax, this course starts from the real-world perspective: Problems in data science that you can solve with MATLAB.

Do you need to learn how to filter your signal in MATLAB? There's a section for that!

Do you have a complicated formula and you need to translate it into MATLAB code and make a graph that simulates the formula with different parameters? Yeah, there's a section on that as well!

Do you need to make a movie of a 3D simulation changing in color over time and then export as an .avi file? This course covers that as well!

Maybe you want to learn how to make textured landscapes using fractal math, or use SVD to compute the low-rank approximation of a data matrix, or use nonlinear search methods to fit a 3-parameter Gaussian model to data? You guessed it – it's all covered in this course!

If you are looking for a slow, gentle course that will take baby-steps to teach you what you could have learned on your own, then this is not that course.

If you want to gain confidence in solving real-world problems in MATLAB coding to advance your studies, your research, and your career by learning MATLAB programming from a single course with >35 hours of hands-on instruction from a world-class scientist, teacher, and writer, then this course is definitely right for you.

Key topics covered.

The basic stuff: loops, functions, IO, etc. Core skills you need to be able to progress with MATLAB.

The more intermediate and advanced topics in the course include:

2D and 3D plotting, and data animations (movies)

Image and time series segmentation

Calculus and differential equations

Univariate and multivariate time series cleaning and analysis

Spectral (Fourier) and time-frequency analyses

Linear algebra including eigendecomposition, orthogonalization, and principal components analysis

Generating fractal pictures and time series

Nonparametric statistics and nonlinear model fitting

Get started today!

There is no doubt that MATLAB is the premier programming language of scientific computing in university, research, and industry.

The sooner you sign up for this course, the sooner you will be able to advance your career in engineering, physics, biology, finance (or other fields using MATLAB).

Why not get started today?

Click the Signup button to sign up for the course!

Who this course is for:
Anyone looking to build a career in engineering, physics, biology, finance, and many other fields by building Excellent MATLAB coding skills
Anyone wanting to progress beyond watching simple MATLAB tutorials to actually becoming an expert in MATLAB programming by solving real problems in scientific computing

Requirements
A computer with MATLAB or Octave installed.
Many people have access to MATLAB through their school, university, or company.
MATLAB also offers student licenses and free 30-day trials.
Octave is a free cross-platform scientific computing environment that has nearly identical functionality as MATLAB.
Some previous experience with MATLAB programming is desirable.
This course starts from the basics but builds quickly to intermediate/advanced programming levels.
Previous experience with other programming languages will be beneficial but is not necessary.

What you'll learn
Beginning to advanced MATLAB programming proficiency. This is *the only course* that develops intermediate and advanced programming skills.
Obtain real-world application experience that that researchers and industry professionals use MATLAB for, including signal processing, matrix decompositions, spectral analysis, linear and nonlinear model-fitting, and statistics.
Gain skills to solve challenging problems in MATLAB, as opposed to memorizing syntax rules.

also You can find my other useful: programming-posts

MediaInfo: General
Complete name : 3. The Magically Materializing Peaks.mp4
Format : MPEG-4
Format profile : Base Media
Codec ID : isom (isom/iso2/avc1/mp41)
File size : 241 MiB
Duration : 22 min 44 s
Overall bit rate : 1 480 kb/s
Writing application : Lavf57.71.100

Video
ID : 1
Format : AVC
Format/Info : Advanced Video Codec
Format profile : Main@L3.1
Format settings : CABAC / 4 Ref Frames
Format settings, CABAC : Yes
Format settings, RefFrames : 4 frames
Codec ID : avc1
Codec ID/Info : Advanced Video Coding
Duration : 22 min 44 s
Bit rate : 1 344 kb/s
Nominal bit rate : 3 000 kb/s
Width : 1 280 pixels
Height : 720 pixels
Display aspect ratio : 16:9
Frame rate mode : Constant
Frame rate : 30.000 FPS
Color space : YUV
Chroma subsampling : 4:2:0
Bit depth : 8 bits
Scan type : Progressive
Bits/(Pixel*Frame) : 0.049
Stream size : 219 MiB (91%)
Writing library : x264 core 148
Encoding settings : cabac=1 / ref=3 / deblock=1:-1:-1 / analyse=0x1:0x111 / me=umh / subme=6 / psy=1 / psy_rd=1.00:0.15 / mixed_ref=1 / me_range=16 / chroma_me=1 / trellis=1 / 8x8dct=0 / cqm=0 / deadzone=21,11 / fast_pskip=1 / chroma_qp_offset=-3 / threads=22 / lookahead_threads=3 / sliced_threads=0 / nr=0 / decimate=1 / interlaced=0 / bluray_compat=0 / constrained_intra=0 / bframes=3 / b_pyramid=2 / b_adapt=1 / b_bias=0 / direct=1 / weightb=1 / open_gop=0 / weightp=2 / keyint=60 / keyint_min=6 / scenecut=0 / intra_refresh=0 / rc_lookahead=60 / rc=cbr / mbtree=1 / bitrate=3000 / ratetol=1.0 / qcomp=0.60 / qpmin=0 / qpmax=69 / qpstep=4 / vbv_maxrate=3000 / vbv_bufsize=6000 / nal_hrd=none / filler=0 / ip_ratio=1.40 / aq=1:1.00

Audio
ID : 2
Format : AAC
Format/Info : Advanced Audio Codec
Format profile : LC
Codec ID : mp4a-40-2
Duration : 22 min 44 s
Bit rate mode : Constant
Bit rate : 128 kb/s
Channel(s) : 2 channels
Channel positions : Front: L R
Sampling rate : 48.0 kHz
Frame rate : 46.875 FPS (1024 SPF)
Compression mode : Lossy
Stream size : 20.8 MiB (9%)
Language : English
Default : Yes
Alternate group : 1
Screenshots
× Master MATLAB through Guided Problem Solving Close
× Master MATLAB through Guided Problem Solving Close
× Master MATLAB through Guided Problem Solving Close
× Master MATLAB through Guided Problem Solving Close
✅ Exclusive eLearning Videos ParRus-blog ← add to bookmarks

Feel free to contact me PM
when links are dead or want any repost
× Master MATLAB through Guided Problem Solving Close



Download File Size:16.52 GB


Master MATLAB through Guided Problem Solving
€30
Customers who bought this program also bought:
  • The MATLAB Series MATLAB Fundamentals €15
  • MathWorks MATLAB R2019b 9.7.0.1190202 (1 dvd) €100

  • Home| All Programs| Today added Progs| Download Status| Customers opinion| Helpdesk| Shopping cart      
    Copyright 2006-2019 ©   LPStore   All Rights Reserved





    Adobe Photoshop CC 2019 20.0.5 x64 Multilingual Portable with plugins and Camera Raw profiles €110

                 

    Adobe Illustrator CC 2019 23.0.0.530 Multilingual x64 (1 dvd) €75






    Microsoft Office 2019 Professional Plus version 1810 Build 11001.20108 x32 x64 (1 dvd) €99

                 

    Microsoft Office 2019 for Mac 16.26 VL Multilingual €99






    DxO Optics Pro 11.4.0 Build 11979 Elite Multilingual x64 €22


    SketchUp Pro 2019 9.1.174 Portable €30


    Corel Painter 2020 20.0.0.256 Multilingual €40