Home| All Programs| Today added Progs| Download Status| Customers opinion| Helpdesk| Shopping cart

Program Search:

Shopping Cart:




*Note: Minimum order cost: €20
Maximum Total Price: €1500
We Recommend:

Coursera - Bitcoin and Cryptocurrency Technologies (Princeton University) €15 buy download

× Coursera - Bitcoin and Cryptocurrency Technologies (Princeton University) Close
Coursera - Bitcoin and Cryptocurrency Technologies (Princeton University)
WEBRip | English | MP4 | 960 x 540 | AVC ~170 kbps | 29.970 fps
AAC | 128 Kbps | 44.1 KHz | 2 channels | Subs: English | ~12 hours | 1.76 GB
Genre: eLearning Video / Bitcoin Network, Blockchains, Cryptocurrency
To really understand what is special about Bitcoin, we need to understand how it works at a technical level. We’ll address the important questions about Bitcoin, such as: How does Bitcoin work? What makes Bitcoin different? How secure are your Bitcoins? How anonymous are Bitcoin users? What determines the price of Bitcoins? Can cryptocurrencies be regulated? What might the future hold?After this course, you’ll know everything you need to be able to separate fact from fiction when reading claims about Bitcoin and other cryptocurrencies. You’ll have the conceptual foundations you need to engineer secure software that interacts with the Bitcoin network. And you’ll be able to integrate ideas from Bitcoin in your own projects.

Course Lecturers:
Arvind Narayanan, Princeton University

All the features of this course are available for free. It does not offer a certificate upon completion.

The course consists twelve topics, each corresponding to a lecture, and a chapter in our textbook. Most weeks will have two topics each.

Intro to Crypto and Cryptocurrencies
How Bitcoin Achieves Decentralization
Mechanics of Bitcoin
How to Store and Use Bitcoins
Bitcoin mining
Bitcoin and anonymity
Community, Politics, and Regulation
Alternative Mining Puzzles
Bitcoin as a platform
Altcoins and the Cryptocurrency Ecosystem
The future of Bitcoin?
[Bonus lecture] History of cryptocurrencies

The class will consist of lecture videos broken up into 5-7 segments, each 10-15 minutes in length. Each segment contains 1 or 2 integrated quiz questions.

also You can watch my other helpful: Coursera-posts
(if old file-links don't show activity, try copy-paste them to the address bar)

MediaInfo: General
Complete name : 08_New_Yorks_BitLicense_Proposal.mp4
Format : MPEG-4
Format profile : Base Media
Codec ID : isom (isom/iso2/avc1/mp41)
File size : 23.0 MiB
Duration : 10 min 30 s
Overall bit rate : 306 kb/s
Writing application : Lavf55.19.104

Video
ID : 1
Format : AVC
Format/Info : Advanced Video Codec
Format profile : Main@L3.1
Format settings : CABAC / 4 Ref Frames
Format settings, CABAC : Yes
Format settings, RefFrames : 4 frames
Codec ID : avc1
Codec ID/Info : Advanced Video Coding
Duration : 10 min 30 s
Bit rate : 170 kb/s
Width : 960 pixels
Height : 540 pixels
Display aspect ratio : 16:9
Frame rate mode : Constant
Frame rate : 29.970 (29970/1000) FPS
Color space : YUV
Chroma subsampling : 4:2:0
Bit depth : 8 bits
Scan type : Progressive
Bits/(Pixel*Frame) : 0.011
Stream size : 12.8 MiB (55%)
Writing library : x264 core 138
Encoding settings : cabac=1 / ref=3 / deblock=1:0:0 / analyse=0x1:0x111 / me=hex / subme=7 / psy=1 / psy_rd=1.00:0.00 / mixed_ref=1 / me_range=16 / chroma_me=1 / trellis=1 / 8x8dct=0 / cqm=0 / deadzone=21,11 / fast_pskip=1 / chroma_qp_offset=-2 / threads=12 / lookahead_threads=2 / sliced_threads=0 / nr=0 / decimate=1 / interlaced=0 / bluray_compat=0 / constrained_intra=0 / bframes=3 / b_pyramid=2 / b_adapt=1 / b_bias=0 / direct=1 / weightb=1 / open_gop=0 / weightp=2 / keyint=250 / keyint_min=25 / scenecut=40 / intra_refresh=0 / rc_lookahead=40 / rc=crf / mbtree=1 / crf=28.0 / qcomp=0.60 / qpmin=0 / qpmax=69 / qpstep=4 / ip_ratio=1.40 / aq=1:1.00

Audio
ID : 2
Format : AAC
Format/Info : Advanced Audio Codec
Format profile : LC
Codec ID : mp4a-40-2
Duration : 10 min 30 s
Bit rate mode : Constant
Bit rate : 128 kb/s
Channel(s) : 2 channels
Channel positions : Front: L R
Sampling rate : 44.1 kHz
Frame rate : 43.066 FPS (1024 SPF)
Compression mode : Lossy
Stream size : 9.63 MiB (42%)
Language : English
Default : Yes
Alternate group : 1 Screenshots
× Coursera - Bitcoin and Cryptocurrency Technologies (Princeton University) Close
× Coursera - Bitcoin and Cryptocurrency Technologies (Princeton University) Close
× Coursera - Bitcoin and Cryptocurrency Technologies (Princeton University) Close
× Coursera - Bitcoin and Cryptocurrency Technologies (Princeton University) Close
× Coursera - Bitcoin and Cryptocurrency Technologies (Princeton University) Close
✅ Exclusive eLearning Videos ParRus-blog ← add to bookmarks

Feel free to contact me PM
when links are dead or want any repost
× Coursera - Bitcoin and Cryptocurrency Technologies (Princeton University) Close



Download File Size:1.7 GB


Coursera - Bitcoin and Cryptocurrency Technologies (Princeton University)
€15
Customers who bought this program also bought:
  • Mathematics - eBook Collection (part-1) €30
  • Mathematics - eBook Collection (part-2) €30
  • Constructing Number Merging Perspectives from Psychology and Mathematics Education €10
  • A Clinician’s Guide to Suicide Risk Assessment and Management €10
  • Handbook of School-Based Mental Health Promotion An Evidence-Informed Framework for Implementation €10
  • Encyclopedia of Mind Enhancing Foods, Drugs and Nutritional Substances, 2nd edition €1
  • Clinical Examination Skills in the Adult Critically Ill Patient | Springer €10
  • TTC Video Quantum Mechanics The Physics of the Microscopic World €20
  • ETHEREUM Basic knowledge and how to mine Ether on the web €10
  • The Holocaust An Encyclopedia and Document Collection 4 volumes by Paul Bartrop Michael Dickerman ePub eBook €1
  • Claude Lecouteux Encyclopedia of Norse and Germanic Folklore Mythology and Magic ePub eBook €1
  • Encyclopedia of the Ottoman Empire €10
  • The New York Times Best Sellers Fiction - May 19, 2019 €10
  • Encyclopedia of Giants and Humanoids in Myth, Legend and Folklore €1
  • Encyclopedia of demons in world religions and cultures €1
  • The New York Times Best Sellers Advice, How-To - July 14, 2019 €15
  • The New York Times Best Sellers Non-Fiction - July 14, 2019 €15
  • MTA 98-381 Introduction to Programming Using Python €20
  • Next Steps in Spanish with Paul Noble - Complete Course Spanish Made Easy with Your Personal Language Coach Audiobook €10
  • Story of Civilization Full, 2019 Edition €1
  • TTC Video - The Fall and Rise of China €20
  • Jessica Amanda Salmonson The Encyclopedia of Amazons Women Warriors from Antiquity to the Modern Era ePub eBook €1
  • Allen L. The Encyclopedia of Money 2nd ed. 2009 eBook €1
  • David HERMAN Manfred JAHN Marie-Laure RYAN editors Routledge Encyclopedia of Narrative Theory HTML eBook €1
  • All the Presidents Bankers The Hidden Alliances That Drive American Power (Audiobook) €1
  • Fundamentals of Cognitive Neuroscience A Beginner s Guide PDF eBook €1
  • The Care of Wounds PDF eBook €10
  • Creating Modern Neuroscience The Revolutionary 1950s PDF eBook €1
  • Sugar A Bittersweet History EPUB eBook €1
  • An Incomplete Education - 3684 Things You Should Have Learned but Probably Didnt By Judy Jones William Wilson eBook PDF €1

  • Home| All Programs| Today added Progs| Download Status| Customers opinion| Helpdesk| Shopping cart      
    Copyright 2006-2020 ©   LPStore   All Rights Reserved





    Autodesk Revit 2020 Multilingual (1 dvd) €140

                 

    Autodesk Product Design Suite Ultimate 2020 .sfx (x64) €250






    Intuit QuickBooks Enterprise Accountant 18.0 R4 €40


    Mindjet MindManager 2020 Multilingual €20


    Chief Architect Premier X12 €50






    Autodesk 3ds Max 2021 €70

                 

    Autodesk Inventor Professional 2020 (1 dvd) €90